<?xml version="1.0" standalone="no"?>
<!DOCTYPE svg PUBLIC "-//W3C//DTD SVG 1.1//EN" "http://www.w3.org/Graphics/SVG/1.1/DTD/svg11.dtd" >
<svg>
<metadata>
Created by FontForge 20090622 at Tue Dec 10 16:14:46 2019
 By deploy user
Copyright &#194;&#169; 1990, 1991, 1998, 2002 Adobe Systems Incorporated.  All Rights Reserved.  &#194;&#169; Copyright 1989, 1990, 1998, 2002 The Monotype Corporation PLC. All Rights Reserved.
</metadata>
<defs>
<font id="GillSansStd-Light" horiz-adv-x="333" >
  <font-face 
    font-family="Gill Sans Std Light"
    font-weight="300"
    font-stretch="normal"
    units-per-em="1000"
    panose-1="2 11 3 2 2 1 4 2 2 3"
    ascent="682"
    descent="-318"
    x-height="449"
    cap-height="682"
    bbox="-215 -250 1036 897"
    underline-thickness="50"
    underline-position="-50"
    unicode-range="U+0020-U+FB02"
  />
<missing-glyph horiz-adv-x="500" 
d="M0 0v700h500v-700h-500zM250 395l170 255h-340zM280 350l170 -255v510zM80 50h340l-170 255zM50 605v-510l170 255z" />
    <glyph glyph-name="f_i" unicode="fi" horiz-adv-x="479" 
d="M235 449v-39h-93v-410h-48v410h-82v39h82v56q0 91 41.5 138.5t119.5 47.5q70 0 110.5 -33t43.5 -93h-48q-4 43 -31.5 64.5t-72.5 21.5q-60 0 -87.5 -35t-27.5 -111v-56h93zM409 449v-449h-48v449h48z" />
    <glyph glyph-name="f_l" unicode="fl" horiz-adv-x="479" 
d="M237 449v-39h-93v-410h-48v410h-83v39h83v78q0 81 44.5 122.5t106.5 41.5q33 0 67 -15v-47q-45 15 -71 15q-49 0 -74 -31.5t-25 -83.5v-80h93zM409 682v-682h-48v682h48z" />
    <glyph glyph-name=".notdef" horiz-adv-x="500" 
d="M0 0v700h500v-700h-500zM250 395l170 255h-340zM280 350l170 -255v510zM80 50h340l-170 255zM50 605v-510l170 255z" />
    <glyph glyph-name=".null" horiz-adv-x="0" 
 />
    <glyph glyph-name="nonmarkingreturn" 
 />
    <glyph glyph-name="space" unicode=" " horiz-adv-x="278" 
 />
    <glyph glyph-name="exclam" unicode="!" horiz-adv-x="177" 
d="M121 97v-97h-65v97h65zM121 682l-17 -490h-31l-17 490h65z" />
    <glyph glyph-name="quotedbl" unicode="&#x22;" horiz-adv-x="278" 
d="M175 684h66v-109l-12 -125h-42l-12 125v109zM37 684h66v-109l-12 -125h-42l-12 125v109z" />
    <glyph glyph-name="numbersign" unicode="#" horiz-adv-x="660" 
d="M261 698h46l-42 -205h190l43 205h46l-43 -205h82v-46h-91l-40 -191h131v-46h-141l-42 -203h-46l42 203h-190l-42 -203h-46l42 203h-83v46h93l39 191h-132v46h142zM255 447l-39 -191h190l40 191h-191z" />
    <glyph glyph-name="dollar" unicode="$" horiz-adv-x="521" 
d="M455 600v-56q-47 34 -84 49.5t-87 20.5v-261q100 -27 150 -72t50 -115q0 -25 -10 -51.5t-31.5 -54t-62.5 -46.5t-96 -23v-108h-48v108q-118 9 -201 80v55q59 -43 102 -61.5t99 -26.5v277q-100 30 -148 74t-48 106q0 26 10.5 52t31.5 51.5t61 42.5t93 20v30h48v-30
q55 -4 91 -17t80 -44zM236 368v246q-65 -1 -105 -36.5t-40 -79.5q0 -90 145 -130zM284 299v-261q64 3 106.5 39t42.5 86q0 49 -34 80t-115 56z" />
    <glyph glyph-name="percent" unicode="%" horiz-adv-x="698" 
d="M679 149q0 -67 -47.5 -114t-113.5 -47q-67 0 -114 47t-47 114t47 114t114 47q66 0 113.5 -47t47.5 -114zM636 149q0 49 -34.5 83.5t-83.5 34.5t-83.5 -35t-34.5 -83q0 -49 34.5 -83.5t83.5 -34.5t83.5 34.5t34.5 83.5zM341 530q0 -67 -47.5 -114t-113.5 -47
q-67 0 -114 47t-47 114t47 114t114 47q66 0 113.5 -47t47.5 -114zM298 530q0 49 -34.5 83.5t-83.5 34.5t-83.5 -35t-34.5 -83q0 -49 34.5 -83.5t83.5 -34.5t83.5 34.5t34.5 83.5zM645 688l-549 -699h-50l550 699h49z" />
    <glyph glyph-name="ampersand" unicode="&#x26;" horiz-adv-x="615" 
d="M508 340h56q-32 -100 -94 -193l139 -147h-67l-103 107q-52 -59 -106.5 -87.5t-128.5 -28.5q-80 0 -129 44.5t-49 117.5q0 65 43.5 119t125.5 89q-44 46 -64.5 83t-20.5 76q0 63 47 106t115 43q64 0 106.5 -40t42.5 -101q0 -108 -143 -181l155 -161q46 70 75 154zM244 384
q128 52 128 139q0 42 -29.5 69.5t-73.5 27.5q-46 0 -77 -28t-31 -69q0 -63 83 -139zM403 144l-173 180q-78 -34 -112.5 -72t-34.5 -92q0 -57 35 -88.5t97 -31.5q102 0 188 104z" />
    <glyph glyph-name="quotesingle" unicode="'" horiz-adv-x="222" 
d="M78 684h66v-109l-12 -125h-42l-12 125v109z" />
    <glyph glyph-name="parenleft" unicode="(" 
d="M131 231q0 -126 50 -250.5t145 -210.5h-50q-196 196 -196 461t195 460h50q-94 -86 -144 -210t-50 -250z" />
    <glyph glyph-name="parenright" unicode=")" 
d="M202 231q0 126 -50 250t-145 210h50q196 -196 196 -460q0 -265 -196 -461h-50q95 86 145 210.5t50 250.5z" />
    <glyph glyph-name="asterisk" unicode="*" horiz-adv-x="469" 
d="M395 613l-140 -113l2 -5l180 16v-47l-180 20l-3 -6l141 -114l-34 -34l-116 141l-5 -1l17 -185h-46l18 185l-4 1l-115 -141l-35 34l142 114l-2 5l-183 -17v46l182 -18l1 6l-140 113l35 35l114 -139l5 2l-18 180h46l-17 -179l5 -3l116 139z" />
    <glyph glyph-name="plus" unicode="+" horiz-adv-x="660" 
d="M68 373h240v240h44v-240h240v-44h-240v-240h-44v240h-240v44z" />
    <glyph glyph-name="comma" unicode="," horiz-adv-x="177" 
d="M121 97v-76q0 -40 -16.5 -77.5t-48.5 -60.5v35q21 31 21 82h-21v97h65z" />
    <glyph glyph-name="hyphen" unicode="-" horiz-adv-x="313" 
d="M275 249v-47h-237v47h237z" />
    <glyph glyph-name="period" unicode="." horiz-adv-x="177" 
d="M121 97v-97h-65v97h65z" />
    <glyph glyph-name="slash" unicode="/" horiz-adv-x="281" 
d="M223 691h46l-219 -700h-47z" />
    <glyph glyph-name="zero" unicode="0" horiz-adv-x="500" 
d="M468 338q0 -160 -62.5 -253.5t-153.5 -93.5q-97 0 -158.5 93.5t-61.5 244.5q0 214 93 307q55 55 125 55t123 -53q95 -95 95 -300zM417 343q0 77 -17 143t-56 111.5t-94 45.5q-73 0 -120 -84.5t-47 -217.5q0 -134 46 -218t119 -84q53 0 92.5 43t58 111t18.5 150z" />
    <glyph glyph-name="one" unicode="1" horiz-adv-x="500" 
d="M275 682v-682h-51v682h51z" />
    <glyph glyph-name="two" unicode="2" horiz-adv-x="500" 
d="M45 569v60q76 62 159 62q84 0 142 -57t58 -139q0 -162 -251 -448h317v-47h-433q316 304 316 494q0 64 -44 106.5t-109 42.5q-40 0 -73.5 -16t-81.5 -58z" />
    <glyph glyph-name="three" unicode="3" horiz-adv-x="500" 
d="M74 598v49q60 44 144 44q89 0 146 -48t57 -124q0 -53 -31 -95t-93 -61v-2q132 -44 132 -174q0 -95 -62.5 -145.5t-141.5 -50.5q-87 0 -157 34v47q70 -33 151 -33q71 0 115 40t44 105q0 70 -47 111t-129 40v48q77 0 122.5 39t45.5 93q0 55 -44.5 91.5t-111.5 36.5
q-73 0 -140 -45z" />
    <glyph glyph-name="four" unicode="4" horiz-adv-x="500" 
d="M376 691v-387h95v-41h-95v-263h-51v263h-311v17l343 411h19zM325 304v288h-2l-238 -288h240z" />
    <glyph glyph-name="five" unicode="5" horiz-adv-x="500" 
d="M386 682v-47h-241v-216q122 18 201.5 -38.5t79.5 -168.5q0 -95 -63 -158t-158 -63q-78 0 -164 45v58q96 -55 166 -55q73 0 120.5 47.5t47.5 121.5q0 54 -23.5 93t-62.5 56.5t-89 20.5t-103 -14v318h289z" />
    <glyph glyph-name="six" unicode="6" horiz-adv-x="500" 
d="M345 691l30 -36q-103 -72 -171 -162t-83 -177q72 53 151 53q82 0 136.5 -53t54.5 -133q0 -84 -54.5 -138t-139.5 -54q-95 0 -151.5 65t-56.5 175q0 134 74 246t210 214zM112 257q-11 -99 34 -158.5t120 -59.5q62 0 104 39.5t42 97.5q0 61 -42.5 103t-104.5 42
q-79 0 -153 -64z" />
    <glyph glyph-name="seven" unicode="7" horiz-adv-x="500" 
d="M475 682l-312 -691l-44 19l282 625h-372v47h446z" />
    <glyph glyph-name="eight" unicode="8" horiz-adv-x="500" 
d="M158 355q-89 60 -89 154q0 74 53.5 128t126.5 54q75 0 128.5 -53.5t53.5 -127.5q0 -96 -87 -155q101 -61 101 -169q0 -82 -56 -138.5t-137 -56.5q-82 0 -139 55.5t-57 135.5q0 112 102 173zM251 377q56 0 92.5 38.5t36.5 96.5q0 55 -38 93t-93 38q-54 0 -91.5 -38.5
t-37.5 -94.5t38 -94.5t93 -38.5zM249 329q-60 0 -101 -42.5t-41 -102.5t41.5 -102.5t103.5 -42.5q63 0 102.5 42.5t39.5 107.5q0 59 -42 99.5t-103 40.5z" />
    <glyph glyph-name="nine" unicode="9" horiz-adv-x="500" 
d="M144 -9l-28 37q122 89 181 170.5t75 166.5q-81 -51 -150 -51q-81 0 -135.5 53.5t-54.5 133.5q0 83 54 136.5t138 53.5q98 0 154 -64t56 -175q0 -254 -290 -461zM381 426q8 99 -32 158t-122 59q-60 0 -102 -39.5t-42 -99.5q0 -61 40 -101.5t101 -40.5q86 0 157 64z" />
    <glyph glyph-name="colon" unicode=":" horiz-adv-x="177" 
d="M121 449v-97h-65v97h65zM121 97v-97h-65v97h65z" />
    <glyph glyph-name="semicolon" unicode=";" horiz-adv-x="177" 
d="M121 97v-76q0 -40 -16.5 -77.5t-48.5 -60.5v35q21 31 21 82h-21v97h65zM121 449v-97h-65v97h65z" />
    <glyph glyph-name="less" unicode="&#x3c;" horiz-adv-x="660" 
d="M68 329v42l524 220v-49l-464 -192l464 -192v-49z" />
    <glyph glyph-name="equal" unicode="=" horiz-adv-x="660" 
d="M68 493h524v-44h-524v44zM68 252h524v-44h-524v44z" />
    <glyph glyph-name="greater" unicode="&#x3e;" horiz-adv-x="660" 
d="M592 329l-524 -220v49l464 192l-464 192v49l524 -220v-42z" />
    <glyph glyph-name="question" unicode="?" horiz-adv-x="281" 
d="M25 595l23 78q36 18 68 18q56 0 90.5 -39t34.5 -103q0 -48 -20 -94t-44.5 -76t-44.5 -67t-20 -70q0 -30 19 -63l-18 -14q-39 45 -39 92q0 33 18 72t40 69.5t40 73t18 82.5q0 39 -22 66.5t-53 27.5q-48 0 -80 -53h-10zM150 97v-97h-65v97h65z" />
    <glyph glyph-name="at" unicode="@" horiz-adv-x="800" 
d="M558 505h61l-83 -392q-8 -31 -5 -45t23 -14q25 0 56.5 19t62 52.5t51.5 89.5t21 121q0 41 -8.5 81t-31.5 83.5t-58 76t-94 53.5t-134 21q-167 0 -273.5 -109.5t-106.5 -281.5q0 -170 106.5 -274.5t278.5 -104.5q214 0 328 152h50q-55 -94 -157.5 -143t-221.5 -49
q-190 0 -307.5 116t-117.5 304q0 64 15.5 124.5t49 116.5t82.5 97.5t121 66.5t159 25q93 0 165.5 -32t113.5 -84.5t61.5 -113t20.5 -125.5q0 -140 -82.5 -233t-169.5 -93q-74 0 -55 88l-2 2q-75 -90 -165 -90q-73 0 -121 58.5t-48 147.5q0 118 73 209.5t178 91.5
q45 0 84.5 -23.5t61.5 -70.5h2zM518 336q0 60 -35 99t-90 39q-60 0 -105 -46.5t-64 -104t-19 -110.5q0 -67 35.5 -111.5t89.5 -44.5t99 48.5t67 112t22 118.5z" />
    <glyph glyph-name="A" unicode="A" horiz-adv-x="667" 
d="M348 687l315 -687h-55l-108 236h-333l-108 -236h-55l315 687h29zM480 280l-147 321l-146 -321h293z" />
    <glyph glyph-name="B" unicode="B" horiz-adv-x="531" 
d="M80 682h142q66 0 112.5 -16t70.5 -43t34 -55.5t10 -61.5q0 -98 -98 -152q158 -33 158 -173q0 -84 -62 -132.5t-167 -48.5h-200v682zM133 638v-272h73q186 0 186 136t-188 136h-71zM133 322v-278h141q96 0 137 41t41 97q0 140 -201 140h-118z" />
    <glyph glyph-name="C" unicode="C" horiz-adv-x="677" 
d="M647 634v-58q-125 66 -243 66q-128 0 -213 -86t-85 -216q0 -132 85.5 -216t219.5 -84q110 0 243 70v-55q-120 -64 -242 -64q-156 0 -259.5 99.5t-103.5 249.5q0 152 106.5 251.5t251.5 99.5q115 0 240 -57z" />
    <glyph glyph-name="D" unicode="D" horiz-adv-x="740" 
d="M79 682h239q84 0 150 -21.5t106.5 -55t67.5 -79.5t37.5 -91.5t10.5 -93.5q0 -63 -19.5 -120.5t-60 -108.5t-113.5 -81.5t-170 -30.5h-248v682zM132 638v-594h192q130 0 219.5 79.5t89.5 217.5q0 131 -86.5 214t-225.5 83h-189z" />
    <glyph glyph-name="E" unicode="E" horiz-adv-x="490" 
d="M452 682v-44h-319v-273h311v-44h-311v-277h327v-44h-380v682h372z" />
    <glyph glyph-name="F" unicode="F" horiz-adv-x="438" 
d="M429 682v-44h-298v-259h269v-44h-269v-335h-53v682h351z" />
    <glyph glyph-name="G" unicode="G" horiz-adv-x="719" 
d="M650 633v-60q-122 69 -242 69q-130 0 -215.5 -85.5t-85.5 -215.5q0 -59 19.5 -112t57.5 -95.5t99.5 -68t139.5 -25.5q103 0 187 42v184h-144v44h197v-261q-120 -58 -242 -58q-159 0 -265 100.5t-106 251.5q0 150 104 249t262 99q105 0 234 -58z" />
    <glyph glyph-name="H" unicode="H" horiz-adv-x="719" 
d="M640 682v-682h-53v323h-455v-323h-53v682h53v-315h455v315h53z" />
    <glyph glyph-name="I" unicode="I" horiz-adv-x="208" 
d="M131 682v-682h-53v682h53z" />
    <glyph glyph-name="J" unicode="J" horiz-adv-x="208" 
d="M135 682v-682q0 -112 -41 -153q-31 -31 -58.5 -40t-75.5 -4l-5 50q60 -14 93.5 21t33.5 112v696h53z" />
    <glyph glyph-name="K" unicode="K" horiz-adv-x="531" 
d="M522 682l-325 -340l356 -342h-67l-357 341v-341h-53v682h53v-340l327 340h66z" />
    <glyph glyph-name="L" unicode="L" horiz-adv-x="469" 
d="M132 682v-638h337v-44h-390v682h53z" />
    <glyph glyph-name="M" unicode="M" horiz-adv-x="781" 
d="M390 365l260 317h53v-682h-53v605h-2l-258 -319l-258 319h-2v-605h-53v682h53z" />
    <glyph glyph-name="N" unicode="N" horiz-adv-x="771" 
d="M693 682v-682h-44l-518 596v-596h-53v682h45l517 -596v596h53z" />
    <glyph glyph-name="O" unicode="O" horiz-adv-x="823" 
d="M773 341q0 -147 -105 -248.5t-257 -101.5q-151 0 -255.5 101.5t-104.5 248.5t104.5 248.5t255.5 101.5q152 0 257 -101.5t105 -248.5zM716 341q0 127 -87.5 214t-215.5 87t-216.5 -87t-88.5 -214t88.5 -214t216.5 -87t215.5 87t87.5 214z" />
    <glyph glyph-name="P" unicode="P" horiz-adv-x="510" 
d="M78 682h188q113 0 168 -50t55 -130q0 -35 -11 -66t-36 -58t-71.5 -43t-109.5 -16h-130v-319h-53v682zM131 638v-275h127q90 0 132 38t42 100q0 60 -41.5 98.5t-126.5 38.5h-133z" />
    <glyph glyph-name="Q" unicode="Q" horiz-adv-x="823" 
d="M743 -74l-59 -69q-177 22 -310 134q-142 11 -232.5 113.5t-90.5 235.5q0 149 103 250t257 101q155 0 258.5 -100t103.5 -249q0 -37 -8.5 -76.5t-31.5 -85.5t-57.5 -83t-93 -66.5t-131.5 -39.5q49 -35 108 -57.5t106 -22.5q32 0 67 25zM716 341q0 127 -88 214t-216 87
q-127 0 -215.5 -88t-88.5 -213t87.5 -213t213.5 -88q127 0 217 87.5t90 213.5z" />
    <glyph glyph-name="R" unicode="R" horiz-adv-x="573" 
d="M79 682h175q117 0 171.5 -50t54.5 -126q0 -118 -130 -166q34 -18 91 -104l154 -236h-62l-119 187q-59 94 -92.5 117t-97.5 23h-92v-327h-53v682zM132 638v-267h113q88 0 133 35.5t45 98.5q0 61 -45 97t-135 36h-111z" />
    <glyph glyph-name="S" unicode="S" horiz-adv-x="469" 
d="M400 648v-58q-52 30 -85 41t-68 11q-61 0 -102.5 -37t-41.5 -93q0 -42 24 -71t60 -43l78.5 -31.5t78.5 -36t60 -57.5t24 -95q0 -79 -57.5 -133t-140.5 -54q-85 0 -175 60v62q57 -41 94.5 -57t77.5 -16q61 0 102.5 39t41.5 97q0 45 -24 76.5t-60 46.5l-78.5 32.5t-78.5 35
t-60 54t-24 89.5q0 76 57.5 128.5t138.5 52.5q79 0 158 -43z" />
    <glyph glyph-name="T" unicode="T" horiz-adv-x="573" 
d="M569 682v-44h-256v-638h-53v638h-256v44h565z" />
    <glyph glyph-name="U" unicode="U" horiz-adv-x="698" 
d="M582 682h53v-372q0 -84 -24.5 -148t-66.5 -100t-91 -53.5t-104 -17.5q-122 0 -203.5 80t-81.5 227v384h53v-382q0 -127 66.5 -193.5t165.5 -66.5q97 0 165 66t68 201v375z" />
    <glyph glyph-name="V" unicode="V" horiz-adv-x="594" 
d="M591 682l-286 -689h-15l-287 689h53l242 -577l240 577h53z" />
    <glyph glyph-name="W" unicode="W" horiz-adv-x="1031" 
d="M516 569l-229 -576h-14l-274 689h54l226 -566l229 566h16l228 -566l226 566h54l-274 -689h-13z" />
    <glyph glyph-name="X" unicode="X" horiz-adv-x="688" 
d="M344 388l259 294h68l-293 -333l310 -349h-68l-276 312l-276 -312h-68l309 349l-293 333h68z" />
    <glyph glyph-name="Y" unicode="Y" horiz-adv-x="583" 
d="M583 682l-265 -316v-366h-53v366l-265 316h64l228 -270l227 270h64z" />
    <glyph glyph-name="Z" unicode="Z" horiz-adv-x="635" 
d="M602 682l5 -19l-511 -619h515v-44h-597l-5 15l511 623h-488v44h570z" />
    <glyph glyph-name="bracketleft" unicode="[" horiz-adv-x="302" 
d="M117 635v-808h178v-47h-226v902h226v-47h-178z" />
    <glyph glyph-name="backslash" unicode="\" horiz-adv-x="281" 
d="M232 -9l-220 700h47l219 -700h-46z" />
    <glyph glyph-name="bracketright" unicode="]" horiz-adv-x="302" 
d="M185 -173v808h-178v47h226v-902h-226v47h178z" />
    <glyph glyph-name="asciicircum" unicode="^" horiz-adv-x="660" 
d="M330 691l219 -262l-32 -26l-187 225l-188 -225l-31 26z" />
    <glyph glyph-name="underscore" unicode="_" horiz-adv-x="500" 
d="M-6 -75h512v-50h-512v50z" />
    <glyph glyph-name="grave" unicode="`" 
d="M77 677h81l104 -156h-33z" />
    <glyph glyph-name="a" unicode="a" horiz-adv-x="427" 
d="M421 78v-40l-8 -6q-54 -41 -83 -41q-16 0 -22.5 11t-9.5 45q-72 -56 -141 -56q-51 0 -86 33.5t-35 80.5q0 55 39.5 92.5t95.5 53t127 18.5v57q0 92 -100 92q-35 0 -65.5 -13t-71.5 -44v49q78 48 145 48q33 0 62 -9t53.5 -36.5t24.5 -71.5v-280q0 -23 11 -23q13 0 64 40z
M298 89v140q-89 4 -151.5 -31t-62.5 -93q0 -32 25.5 -53t63.5 -21q60 0 125 58z" />
    <glyph glyph-name="b" unicode="b" horiz-adv-x="510" 
d="M62 25v657h48v-297q38 38 74.5 55.5t87.5 17.5q88 0 144 -61t56 -158q0 -113 -68.5 -180.5t-182.5 -67.5q-73 0 -159 34zM110 331v-272q56 -21 110 -21q88 0 144.5 56t56.5 142q0 79 -43.5 130.5t-111.5 51.5q-79 0 -156 -87z" />
    <glyph glyph-name="c" unicode="c" horiz-adv-x="417" 
d="M379 436v-53q-66 28 -117 28q-75 0 -122 -52t-47 -136q0 -85 47 -135t126 -50q56 0 121 26v-50q-69 -23 -125 -23q-99 0 -159.5 62.5t-60.5 164.5q0 106 61 173t157 67q50 0 119 -22z" />
    <glyph glyph-name="d" unicode="d" horiz-adv-x="510" 
d="M449 682v-682h-48v35q-64 -44 -133 -44q-96 0 -161.5 67.5t-65.5 166.5q0 101 64.5 167t162.5 66q60 0 133 -36v260h48zM401 79v290q-66 42 -131 42q-78 0 -128 -51.5t-50 -131.5q0 -82 53.5 -136t134.5 -54q60 0 121 41z" />
    <glyph glyph-name="e" unicode="e" horiz-adv-x="479" 
d="M445 241h-354q-10 -84 45 -143.5t134 -59.5q84 0 167 67v-54q-78 -60 -173 -60q-98 0 -161 67.5t-63 171.5q0 99 58.5 163.5t147.5 64.5q80 0 139.5 -56t59.5 -161zM97 280h291q-25 131 -142 131q-56 0 -96 -35t-53 -96z" />
    <glyph glyph-name="f" unicode="f" horiz-adv-x="240" 
d="M332 672v-45q-50 17 -81 17q-56 0 -82.5 -34t-26.5 -105v-56h87v-39h-87v-410h-48v410h-83v39h83v74q0 81 47 124.5t109 43.5q34 0 82 -19z" />
    <glyph glyph-name="g" unicode="g" horiz-adv-x="427" 
d="M417 449v-39h-102q62 -58 62 -119q0 -56 -26.5 -91.5t-64 -49.5t-74.5 -22.5t-63.5 -22t-26.5 -36.5t22 -33.5t54.5 -11t70.5 -5t70.5 -12.5t54.5 -34.5t22 -71.5q0 -62 -53.5 -96.5t-147.5 -34.5q-98 0 -147.5 34t-49.5 86q0 43 34 71t97 38v2q-73 17 -73 64
q0 28 22.5 43.5t67.5 29.5v2q-62 18 -91 60t-29 89q0 65 46 112.5t145 47.5h180zM331 290q0 49 -35.5 84t-85.5 35t-84 -34t-34 -83q0 -51 34 -86.5t85 -35.5q49 0 84.5 35t35.5 85zM370 -103q0 79 -143 79q-163 0 -163 -83q0 -40 40 -61.5t114 -21.5q69 0 110.5 23.5
t41.5 63.5z" />
    <glyph glyph-name="h" unicode="h" horiz-adv-x="490" 
d="M110 682v-311h2q31 47 65 67t83 20q75 0 121 -48t46 -135v-275h-48v256q0 155 -122 155q-48 0 -81.5 -23t-65.5 -73v-315h-48v682h48z" />
    <glyph glyph-name="i" unicode="i" horiz-adv-x="188" 
d="M118 449v-449h-48v449h48zM118 682v-82h-48v82h48z" />
    <glyph glyph-name="j" unicode="j" horiz-adv-x="188" 
d="M116 449v-499q0 -90 -38 -135.5t-95 -44.5l-11 41q49 2 72.5 32.5t23.5 107.5v498h48zM116 682v-82h-48v82h48z" />
    <glyph glyph-name="k" unicode="k" horiz-adv-x="427" 
d="M107 682v-682h-48v682h48zM425 449l-246 -213l284 -236h-66l-283 236l248 213h63z" />
    <glyph glyph-name="l" unicode="l" horiz-adv-x="188" 
d="M118 682v-682h-48v682h48z" />
    <glyph glyph-name="m" unicode="m" horiz-adv-x="771" 
d="M108 449v-79h2q30 47 63.5 67.5t79.5 20.5q102 0 145 -108q34 57 71 82.5t85 25.5q71 0 113.5 -50t42.5 -132v-276h-48v255q0 70 -30 113t-87 43q-41 0 -71.5 -24t-64.5 -81v-306h-48v256q0 78 -33.5 116.5t-84.5 38.5q-41 0 -72.5 -22t-62.5 -74v-315h-48v449h48z" />
    <glyph glyph-name="n" unicode="n" horiz-adv-x="490" 
d="M110 449v-78h2q31 47 65 67t83 20q75 0 121 -48t46 -136v-274h-48v256q0 76 -31.5 115.5t-90.5 39.5q-48 0 -82 -23t-65 -73v-315h-48v449h48z" />
    <glyph glyph-name="o" unicode="o" horiz-adv-x="542" 
d="M499 224q0 -100 -65 -166.5t-163 -66.5t-163.5 66.5t-65.5 166.5t65.5 167t163.5 67t163 -66.5t65 -167.5zM448 224q0 80 -50.5 133.5t-126.5 53.5q-77 0 -127.5 -53t-50.5 -134q0 -80 50.5 -133t127.5 -53q76 0 126.5 53t50.5 133z" />
    <glyph glyph-name="p" unicode="p" horiz-adv-x="510" 
d="M111 449v-25q69 34 135 34q96 0 159 -66t63 -166q0 -99 -65 -167t-159 -68q-64 0 -133 34v-255h-48v679h48zM111 378v-306q63 -34 124 -34q81 0 130.5 50.5t49.5 133.5q0 82 -52.5 135.5t-133.5 53.5q-56 0 -118 -33z" />
    <glyph glyph-name="q" unicode="q" horiz-adv-x="510" 
d="M447 449v-679h-48v256q-77 -35 -147 -35q-95 0 -155 63t-60 162q0 104 63.5 173t158.5 69q67 0 140 -40v31h48zM399 74v297q-67 40 -130 40q-77 0 -129 -57t-52 -142q0 -80 47.5 -128.5t126.5 -48.5q67 0 137 39z" />
    <glyph glyph-name="r" unicode="r" 
d="M373 405l-28 -45q-56 51 -90 51q-68 0 -144 -129v-282h-48v449h48v-118h2q80 127 157 127q43 0 103 -53z" />
    <glyph glyph-name="s" unicode="s" horiz-adv-x="354" 
d="M309 420v-52q-70 46 -123 46q-41 0 -68.5 -22t-27.5 -54q0 -29 24 -49t58 -32t68.5 -26.5t58.5 -43.5t24 -72q0 -53 -42.5 -88.5t-104.5 -35.5q-68 0 -135 41v47q81 -41 141 -41q41 0 68 22t27 56q0 29 -24 49.5t-58.5 33t-68.5 27t-58 42t-24 67.5q0 52 42 87.5
t103 35.5q54 0 120 -38z" />
    <glyph glyph-name="t" unicode="t" horiz-adv-x="302" 
d="M150 598v-149h126v-39h-126v-267q0 -35 1 -50t7.5 -30.5t20 -20t38.5 -4.5q33 0 82 22v-46q-11 -6 -41 -15q-34 -8 -52 -8q-42 0 -73 24.5t-31 71.5v323h-121v39h121v107l33 42h15z" />
    <glyph glyph-name="u" unicode="u" horiz-adv-x="490" 
d="M379 0v74h-2q-32 -45 -64.5 -64t-83.5 -19q-67 0 -117 44t-50 136v278h48v-277q0 -65 35 -99.5t88 -34.5q50 0 82 23t64 73v315h48v-449h-48z" />
    <glyph glyph-name="v" unicode="v" horiz-adv-x="427" 
d="M427 449l-193 -458h-30l-204 458h49l169 -378l162 378h47z" />
    <glyph glyph-name="w" unicode="w" horiz-adv-x="708" 
d="M708 449l-194 -458h-23l-138 365l-139 -365h-22l-192 458h47l153 -366l141 366h26l137 -366l156 366h48z" />
    <glyph glyph-name="x" unicode="x" horiz-adv-x="479" 
d="M244 197l-176 -197h-62l205 230l-205 219h62l176 -186l176 186h62l-206 -219l206 -230h-62z" />
    <glyph glyph-name="y" unicode="y" horiz-adv-x="417" 
d="M423 449l-336 -679h-49l157 317l-189 362h50l163 -314l155 314h49z" />
    <glyph glyph-name="z" unicode="z" horiz-adv-x="396" 
d="M381 449l4 -15l-295 -390h295v-44h-370l-5 15l297 390h-278v44h352z" />
    <glyph glyph-name="braceleft" unicode="{" 
d="M49 194v64q52 1 73 38t21 126v97q0 88 35.5 127.5t107.5 35.5v-54q-51 0 -69.5 -21t-18.5 -88v-97q0 -81 -23 -129t-74 -67q51 -19 74 -67t23 -129v-97q0 -67 18.5 -88t69.5 -21v-54q-72 -4 -107.5 35.5t-35.5 127.5v97q0 89 -21 126t-73 38z" />
    <glyph glyph-name="bar" unicode="|" horiz-adv-x="222" 
d="M86 750h48v-1000h-48v1000z" />
    <glyph glyph-name="braceright" unicode="}" 
d="M284 258v-64q-52 -1 -73 -38t-21 -126v-97q0 -88 -35.5 -127.5t-107.5 -35.5v54q51 0 69.5 21t18.5 88v97q0 81 23 129t74 67q-51 19 -74 67t-23 129v97q0 67 -18.5 88t-69.5 21v54q72 4 107.5 -35.5t35.5 -127.5v-97q0 -89 21 -126t73 -38z" />
    <glyph glyph-name="asciitilde" unicode="~" horiz-adv-x="660" 
d="M67 291v54q81 59 140 59q39 0 128 -39.5t118 -39.5q28 0 57 14t82 52v-54q-81 -59 -137 -59q-40 0 -126.5 39.5t-120.5 39.5q-31 0 -59 -13t-82 -53z" />
    <glyph glyph-name="uni00A0" unicode="&#xa0;" horiz-adv-x="278" 
 />
    <glyph glyph-name="exclamdown" unicode="&#xa1;" horiz-adv-x="177" 
d="M56 364v97h65v-97h-65zM56 -221l17 490h31l17 -490h-65z" />
    <glyph glyph-name="cent" unicode="&#xa2;" horiz-adv-x="417" 
d="M410 638l-67 -190q22 -6 34 -12v-53q-27 14 -50 20l-125 -355q28 -10 65 -10q61 0 120 27v-47q-90 -43 -201 -18l-68 -189h-44l74 207q-106 61 -106 197q0 126 73.5 189.5t186.5 51.5l65 182h43zM164 67l124 344h-24q-75 0 -123 -50t-48 -139q0 -97 71 -155z" />
    <glyph glyph-name="sterling" unicode="&#xa3;" horiz-adv-x="552" 
d="M507 682l24 -47q-32 8 -54 8q-86 0 -141 -75t-96 -214h106v-47h-120l-67 -254q74 7 104 7q39 0 95 -10q8 -1 21 -3.5t19 -3.5q28 -4 41 -4q26 0 50 6q28 9 49 21v-53q-20 -10 -46 -17q-27 -5 -50 -5q-19 0 -87 11q-60 10 -104 10q-65 0 -157 -17l84 312h-84v47h97
q93 337 268 337q24 0 48 -9z" />
    <glyph glyph-name="currency" unicode="&#xa4;" horiz-adv-x="556" 
d="M277 557q74 0 136 -48l63 63l32 -32l-63 -63q48 -60 48 -135t-48 -136l63 -63l-32 -32l-63 63q-60 -48 -136 -48q-75 0 -135 48l-63 -63l-32 32l63 63q-48 64 -48 136q0 74 48 135l-63 63l32 32l63 -63q62 48 135 48zM277 509q-70 0 -118.5 -48.5t-48.5 -118.5t48.5 -119
t118.5 -49t119 49t49 119t-49 118.5t-119 48.5z" />
    <glyph glyph-name="yen" unicode="&#xa5;" horiz-adv-x="556" 
d="M2 716h72l207 -354l204 354h69l-210 -354h179v-47h-212v-76h212v-47h-212v-192h-64v192h-214v47h214v76h-214v47h181z" />
    <glyph glyph-name="brokenbar" unicode="&#xa6;" horiz-adv-x="222" 
d="M86 675h48v-350h-48v350zM86 175h48v-350h-48v350z" />
    <glyph glyph-name="section" unicode="&#xa7;" horiz-adv-x="396" 
d="M337 581h-51q-14 66 -86 66q-38 0 -65 -25t-27 -60q0 -38 27 -75.5t65.5 -70.5l77 -67t65.5 -77.5t27 -88.5q0 -41 -18.5 -77t-65.5 -85q49 -57 49 -119q0 -59 -39 -95.5t-103 -36.5q-53 0 -90 29t-43 79h50q14 -64 85 -64q41 0 67.5 25t26.5 63q0 36 -27 72.5t-66 69.5
l-77.5 67t-65.5 78t-27 90q0 75 84 159q-50 64 -50 121q0 59 39.5 95.5t102.5 36.5q57 0 93 -31t42 -79zM324 179q0 55 -58 113q-12 12 -125 115q-35 -34 -49.5 -63t-14.5 -64q0 -31 17.5 -62t37.5 -51t61 -56t63 -58q68 64 68 126z" />
    <glyph glyph-name="dieresis" unicode="&#xa8;" 
d="M255 636q18 0 31 -13t13 -31t-13 -31t-31 -13t-31 13t-13 31t13 31t31 13zM78 636q18 0 31 -13t13 -31t-13 -31t-31 -13t-31 13t-13 31t13 31t31 13z" />
    <glyph glyph-name="copyright" unicode="&#xa9;" horiz-adv-x="800" 
d="M562 449l-47 -12q-35 81 -111 81q-59 0 -98.5 -42t-39.5 -112q0 -80 36.5 -129t96.5 -49q89 0 123 100l44 -16q-15 -56 -59 -92t-105 -36q-81 0 -134 61t-53 153q0 86 52 144.5t138 58.5q102 0 157 -110zM400 728q154 0 263.5 -109t109.5 -264t-109.5 -264t-263.5 -109
t-263.5 109t-109.5 264t109.5 264t263.5 109zM400 681q-135 0 -230.5 -95.5t-95.5 -230.5t95.5 -230.5t230.5 -95.5t230.5 95.5t95.5 230.5t-95.5 230.5t-230.5 95.5z" />
    <glyph glyph-name="ordfeminine" unicode="&#xaa;" horiz-adv-x="281" 
d="M280 474v-36q-46 -29 -64 -29q-23 0 -27 29q-43 -29 -84 -29q-35 0 -59.5 20.5t-24.5 50.5q0 43 44 69t124 30v31q0 50 -58 50q-23 0 -41.5 -7.5t-52.5 -30.5v39q52 30 99 30q46 0 70.5 -21.5t24.5 -55.5v-148q0 -20 9 -20zM189 471v79q-59 0 -92 -19t-33 -52
q0 -18 14 -29t37 -11q35 0 74 32z" />
    <glyph glyph-name="guillemotleft" unicode="&#xab;" horiz-adv-x="500" 
d="M293 231l188 -224h-60l-189 224l189 224h60zM80 231l188 -224h-60l-189 224l189 224h60z" />
    <glyph glyph-name="logicalnot" unicode="&#xac;" horiz-adv-x="660" 
d="M68 483h524v-284h-44v240h-480v44z" />
    <glyph glyph-name="uni00AD" unicode="&#xad;" horiz-adv-x="313" 
d="M275 249v-47h-237v47h237z" />
    <glyph glyph-name="registered" unicode="&#xae;" horiz-adv-x="800" 
d="M250 547h162q62 0 97.5 -27.5t35.5 -76.5q0 -38 -25 -68.5t-82 -40.5q42 -25 61 -51.5t61 -127.5h-59q-52 115 -82.5 143.5t-97.5 28.5h-23v-172h-48v392zM298 366h65q68 0 96.5 16.5t28.5 56.5q0 39 -26 54t-92 15h-72v-142zM400 728q154 0 263.5 -109t109.5 -264
t-109.5 -264t-263.5 -109t-263.5 109t-109.5 264t109.5 264t263.5 109zM400 681q-135 0 -230.5 -95.5t-95.5 -230.5t95.5 -230.5t230.5 -95.5t230.5 95.5t95.5 230.5t-95.5 230.5t-230.5 95.5z" />
    <glyph glyph-name="macron" unicode="&#xaf;" 
d="M300 623v-51h-267v51h267z" />
    <glyph glyph-name="degree" unicode="&#xb0;" horiz-adv-x="400" 
d="M200 691q58 0 99 -40.5t41 -98.5t-41 -99t-99 -41t-98.5 41t-40.5 99t40.5 98.5t98.5 40.5zM200 651q-41 0 -70 -29.5t-29 -70.5t29 -70t70 -29t70.5 29t29.5 70t-29.5 70.5t-70.5 29.5z" />
    <glyph glyph-name="plusminus" unicode="&#xb1;" horiz-adv-x="660" 
d="M68 44h524v-44h-524v44zM68 373h240v240h44v-240h240v-44h-240v-240h-44v240h-240v44z" />
    <glyph glyph-name="two.superior" unicode="&#xb2;" horiz-adv-x="313" 
d="M38 616v41q49 34 100 34q52 0 88 -29.5t36 -73.5q0 -81 -145 -225h184v-31h-271q89 74 139.5 142.5t50.5 114.5q0 31 -24.5 51.5t-60.5 20.5q-24 0 -43 -8.5t-54 -36.5z" />
    <glyph glyph-name="three.superior" unicode="&#xb3;" horiz-adv-x="313" 
d="M48 632v34q38 25 90 25q55 0 90.5 -25.5t35.5 -65.5q0 -58 -65 -79v-2q70 -20 70 -89q0 -44 -36 -73.5t-90 -29.5q-53 0 -99 19v32q46 -21 95 -21q41 0 65 19.5t24 52.5q0 74 -105 74v31q46 0 73 17.5t27 46.5q0 27 -24.5 45t-61.5 18q-42 0 -89 -29z" />
    <glyph glyph-name="acute" unicode="&#xb4;" 
d="M338 677l-152 -156h-33l104 156h81z" />
    <glyph glyph-name="mu" unicode="&#xb5;" horiz-adv-x="556" 
d="M101 449h48v-233q0 -181 132 -181t132 167v247h48v-449h-48v50q-53 -59 -133 -59q-42 0 -71.5 13.5t-59.5 45.5v-227h-48v626z" />
    <glyph glyph-name="paragraph" unicode="&#xb6;" horiz-adv-x="650" 
d="M621 716v-68h-96v-847h-62v847h-130v-847h-64v504q-98 -4 -159 54.5t-61 151.5q0 94 63.5 149.5t170.5 55.5h338z" />
    <glyph glyph-name="periodcentered" unicode="&#xb7;" horiz-adv-x="281" 
d="M141 400q23 0 38.5 -16t15.5 -38t-15.5 -38t-38.5 -16t-38.5 16t-15.5 38t15.5 38t38.5 16z" />
    <glyph glyph-name="cedilla" unicode="&#xb8;" 
d="M198 8l-12 -43q62 -10 62 -63q0 -46 -42.5 -65.5t-99.5 -6.5l5 32q48 -4 73 3.5t25 33.5q0 38 -62 39l21 70h30z" />
    <glyph glyph-name="one.superior" unicode="&#xb9;" horiz-adv-x="313" 
d="M177 687v-355h-42v355h42z" />
    <glyph glyph-name="ordmasculine" unicode="&#xba;" horiz-adv-x="354" 
d="M329 550q0 -64 -42 -102.5t-110 -38.5q-65 0 -108.5 40t-43.5 101q0 62 42.5 101.5t109.5 39.5q64 0 108 -41t44 -100zM284 550q0 46 -30.5 77t-76.5 31q-47 0 -77 -30.5t-30 -77.5q0 -48 30 -78t77 -30t77 30.5t30 77.5z" />
    <glyph glyph-name="guillemotright" unicode="&#xbb;" horiz-adv-x="500" 
d="M420 231l-188 224h60l189 -224l-189 -224h-60zM207 231l-188 224h60l189 -224l-189 -224h-60z" />
    <glyph glyph-name="onequarter" unicode="&#xbc;" horiz-adv-x="833" 
d="M637 360v-198h56v-28h-56v-134h-42v134h-183v13l205 213h20zM595 162v131l-126 -131h126zM183 687v-355h-42v355h42zM627 691l-526 -718h-39l526 718h39z" />
    <glyph glyph-name="onehalf" unicode="&#xbd;" horiz-adv-x="833" 
d="M183 687v-355h-42v355h42zM627 691l-526 -718h-39l526 718h39zM482 284v41q49 34 100 34q52 0 88 -29.5t36 -73.5q0 -81 -145 -225h184v-31h-271q89 74 139.5 142.5t50.5 114.5q0 31 -24.5 51.5t-60.5 20.5q-24 0 -43 -8.5t-54 -36.5z" />
    <glyph glyph-name="threequarters" unicode="&#xbe;" horiz-adv-x="833" 
d="M71 632v34q37 25 90 25q55 0 90.5 -25.5t35.5 -65.5q0 -58 -65 -79v-2q70 -20 70 -89q0 -44 -36 -73.5t-90 -29.5q-53 0 -99 19v32q46 -21 95 -21q41 0 65 19.5t24 52.5q0 74 -105 74v31q46 0 73 17.5t27 46.5q0 27 -24.5 45t-61.5 18q-42 0 -89 -29zM679 691l-526 -718
h-39l526 718h39zM689 360v-198h56v-28h-56v-134h-42v134h-183v13l205 213h20zM647 162v131l-126 -131h126z" />
    <glyph glyph-name="questiondown" unicode="&#xbf;" horiz-adv-x="281" 
d="M238 -134l-23 -78q-36 -18 -68 -18q-56 0 -90.5 39t-34.5 103q0 48 20 94t44.5 76t44.5 67t20 70q0 30 -19 63l18 14q39 -45 39 -92q0 -33 -18 -72t-40 -69.5t-40 -73t-18 -82.5q0 -39 22 -66.5t53 -27.5q48 0 80 53h10zM113 364v97h65v-97h-65z" />
    <glyph glyph-name="Agrave" unicode="&#xc0;" horiz-adv-x="667" 
d="M348 687l315 -687h-55l-108 236h-333l-108 -236h-55l315 687h29zM480 280l-147 321l-146 -321h293zM244 895h81l104 -156h-33z" />
    <glyph glyph-name="Aacute" unicode="&#xc1;" horiz-adv-x="667" 
d="M348 687l315 -687h-55l-108 236h-333l-108 -236h-55l315 687h29zM480 280l-147 321l-146 -321h293zM505 895l-152 -156h-33l104 156h81z" />
    <glyph glyph-name="Acircumflex" unicode="&#xc2;" horiz-adv-x="667" 
d="M348 687l315 -687h-55l-108 236h-333l-108 -236h-55l315 687h29zM480 280l-147 321l-146 -321h293zM365 894l106 -164h-38l-99 109l-100 -109h-38l108 164h61z" />
    <glyph glyph-name="Atilde" unicode="&#xc3;" horiz-adv-x="667" 
d="M348 687l315 -687h-55l-108 236h-333l-108 -236h-55l315 687h29zM480 280l-147 321l-146 -321h293zM202 766h-32q0 40 20.5 67.5t61.5 27.5q32 0 88 -24q60 -25 82 -25q20 0 30.5 11.5t14.5 37.5h30q3 -42 -23 -70q-23 -26 -59 -26q-24 0 -89 25q-60 24 -82 24
q-36 0 -42 -48z" />
    <glyph glyph-name="Adieresis" unicode="&#xc4;" horiz-adv-x="667" 
d="M348 687l315 -687h-55l-108 236h-333l-108 -236h-55l315 687h29zM480 280l-147 321l-146 -321h293zM422 854q18 0 31 -13t13 -31t-13 -31t-31 -13t-31 13t-13 31t13 31t31 13zM245 854q18 0 31 -13t13 -31t-13 -31t-31 -13t-31 13t-13 31t13 31t31 13z" />
    <glyph glyph-name="Aring" unicode="&#xc5;" horiz-adv-x="667" 
d="M348 687l315 -687h-55l-108 236h-333l-108 -236h-55l315 687h29zM480 280l-147 321l-146 -321h293zM334 870q-25 0 -42.5 -17t-17.5 -42t17.5 -42.5t42.5 -17.5t42 17.5t17 42.5t-17 42t-42 17zM334 897q36 0 61 -25t25 -61t-25 -61.5t-61 -25.5t-61.5 25.5t-25.5 61.5
t25.5 61t61.5 25z" />
    <glyph glyph-name="AE" unicode="&#xc6;" horiz-adv-x="865" 
d="M818 682v-44h-321v-272h314v-44h-314v-278h330v-44h-383v322h-200l-200 -322h-58l426 682h406zM442 645l-169 -279h171v279h-2z" />
    <glyph glyph-name="Ccedilla" unicode="&#xc7;" horiz-adv-x="677" 
d="M654 110v-55q-120 -64 -242 -64q-16 0 -23 2l-8 -28q62 -10 62 -63q0 -46 -42.5 -65.5t-99.5 -6.5l5 32q48 -4 73 3.5t25 33.5q0 38 -62 39l17 57q-136 17 -223 113t-87 232q0 152 106.5 251.5t251.5 99.5q115 0 240 -57v-58q-125 66 -243 66q-128 0 -213 -86t-85 -216
q0 -132 85.5 -216t219.5 -84q110 0 243 70z" />
    <glyph glyph-name="Egrave" unicode="&#xc8;" horiz-adv-x="490" 
d="M452 682v-44h-319v-273h311v-44h-311v-277h327v-44h-380v682h372zM156 895h81l104 -156h-33z" />
    <glyph glyph-name="Eacute" unicode="&#xc9;" horiz-adv-x="490" 
d="M452 682v-44h-319v-273h311v-44h-311v-277h327v-44h-380v682h372zM417 895l-152 -156h-33l104 156h81z" />
    <glyph glyph-name="Ecircumflex" unicode="&#xca;" horiz-adv-x="490" 
d="M452 682v-44h-319v-273h311v-44h-311v-277h327v-44h-380v682h372zM277 894l106 -164h-38l-99 109l-100 -109h-38l108 164h61z" />
    <glyph glyph-name="Edieresis" unicode="&#xcb;" horiz-adv-x="490" 
d="M452 682v-44h-319v-273h311v-44h-311v-277h327v-44h-380v682h372zM334 854q18 0 31 -13t13 -31t-13 -31t-31 -13t-31 13t-13 31t13 31t31 13zM157 854q18 0 31 -13t13 -31t-13 -31t-31 -13t-31 13t-13 31t13 31t31 13z" />
    <glyph glyph-name="Igrave" unicode="&#xcc;" horiz-adv-x="208" 
d="M131 682v-682h-53v682h53zM-26 895h81l104 -156h-33z" />
    <glyph glyph-name="Iacute" unicode="&#xcd;" horiz-adv-x="208" 
d="M131 682v-682h-53v682h53zM276 895l-152 -156h-33l104 156h81z" />
    <glyph glyph-name="Icircumflex" unicode="&#xce;" horiz-adv-x="208" 
d="M131 682v-682h-53v682h53zM136 894l106 -164h-38l-99 109l-100 -109h-38l108 164h61z" />
    <glyph glyph-name="Idieresis" unicode="&#xcf;" horiz-adv-x="208" 
d="M131 682v-682h-53v682h53zM193 854q18 0 31 -13t13 -31t-13 -31t-31 -13t-31 13t-13 31t13 31t31 13zM16 854q18 0 31 -13t13 -31t-13 -31t-31 -13t-31 13t-13 31t13 31t31 13z" />
    <glyph glyph-name="Eth" unicode="&#xd0;" horiz-adv-x="740" 
d="M79 682h239q84 0 150 -21.5t106.5 -55t67.5 -79.5t37.5 -91.5t10.5 -93.5q0 -63 -19.5 -120.5t-60 -108.5t-113.5 -81.5t-170 -30.5h-248v320h-102v44h102v318zM132 638v-274h221v-44h-221v-276h192q130 0 219.5 79.5t89.5 217.5q0 131 -86.5 214t-225.5 83h-189z" />
    <glyph glyph-name="Ntilde" unicode="&#xd1;" horiz-adv-x="771" 
d="M693 682v-682h-44l-518 596v-596h-53v682h45l517 -596v596h53zM254 766h-32q0 40 20.5 67.5t61.5 27.5q32 0 88 -24q60 -25 82 -25q20 0 30.5 11.5t14.5 37.5h30q3 -42 -23 -70q-23 -26 -59 -26q-24 0 -89 25q-60 24 -82 24q-36 0 -42 -48z" />
    <glyph glyph-name="Ograve" unicode="&#xd2;" horiz-adv-x="823" 
d="M773 341q0 -147 -105 -248.5t-257 -101.5q-151 0 -255.5 101.5t-104.5 248.5t104.5 248.5t255.5 101.5q152 0 257 -101.5t105 -248.5zM716 341q0 127 -87.5 214t-215.5 87t-216.5 -87t-88.5 -214t88.5 -214t216.5 -87t215.5 87t87.5 214zM322 895h81l104 -156h-33z" />
    <glyph glyph-name="Oacute" unicode="&#xd3;" horiz-adv-x="823" 
d="M773 341q0 -147 -105 -248.5t-257 -101.5q-151 0 -255.5 101.5t-104.5 248.5t104.5 248.5t255.5 101.5q152 0 257 -101.5t105 -248.5zM716 341q0 127 -87.5 214t-215.5 87t-216.5 -87t-88.5 -214t88.5 -214t216.5 -87t215.5 87t87.5 214zM583 895l-152 -156h-33l104 156
h81z" />
    <glyph glyph-name="Ocircumflex" unicode="&#xd4;" horiz-adv-x="823" 
d="M773 341q0 -147 -105 -248.5t-257 -101.5q-151 0 -255.5 101.5t-104.5 248.5t104.5 248.5t255.5 101.5q152 0 257 -101.5t105 -248.5zM716 341q0 127 -87.5 214t-215.5 87t-216.5 -87t-88.5 -214t88.5 -214t216.5 -87t215.5 87t87.5 214zM443 894l106 -164h-38l-99 109
l-100 -109h-38l108 164h61z" />
    <glyph glyph-name="Otilde" unicode="&#xd5;" horiz-adv-x="823" 
d="M773 341q0 -147 -105 -248.5t-257 -101.5q-151 0 -255.5 101.5t-104.5 248.5t104.5 248.5t255.5 101.5q152 0 257 -101.5t105 -248.5zM716 341q0 127 -87.5 214t-215.5 87t-216.5 -87t-88.5 -214t88.5 -214t216.5 -87t215.5 87t87.5 214zM280 766h-32q0 40 20.5 67.5
t61.5 27.5q32 0 88 -24q60 -25 82 -25q20 0 30.5 11.5t14.5 37.5h30q3 -42 -23 -70q-23 -26 -59 -26q-24 0 -89 25q-60 24 -82 24q-36 0 -42 -48z" />
    <glyph glyph-name="Odieresis" unicode="&#xd6;" horiz-adv-x="823" 
d="M773 341q0 -147 -105 -248.5t-257 -101.5q-151 0 -255.5 101.5t-104.5 248.5t104.5 248.5t255.5 101.5q152 0 257 -101.5t105 -248.5zM716 341q0 127 -87.5 214t-215.5 87t-216.5 -87t-88.5 -214t88.5 -214t216.5 -87t215.5 87t87.5 214zM500 854q18 0 31 -13t13 -31
t-13 -31t-31 -13t-31 13t-13 31t13 31t31 13zM323 854q18 0 31 -13t13 -31t-13 -31t-31 -13t-31 13t-13 31t13 31t31 13z" />
    <glyph glyph-name="multiply" unicode="&#xd7;" horiz-adv-x="660" 
d="M129 521l32 32l169 -169l169 169l32 -32l-169 -169l169 -169l-32 -32l-169 169l-169 -169l-32 32l169 169z" />
    <glyph glyph-name="Oslash" unicode="&#xd8;" horiz-adv-x="823" 
d="M195 129l406 450q-76 63 -188 63q-128 0 -216.5 -87t-88.5 -214q0 -125 87 -212zM195 59l-63 -70l-38 29l64 71q-107 105 -107 252t104.5 248.5t255.5 101.5q125 0 225 -74l63 70l37 -25l-67 -74q104 -101 104 -247q0 -147 -105 -248.5t-257 -101.5q-115 0 -216 68z
M635 549l-405 -451q79 -58 183 -58q128 0 215.5 87t87.5 214q0 114 -81 208z" />
    <glyph glyph-name="Ugrave" unicode="&#xd9;" horiz-adv-x="698" 
d="M582 682h53v-372q0 -84 -24.5 -148t-66.5 -100t-91 -53.5t-104 -17.5q-122 0 -203.5 80t-81.5 227v384h53v-382q0 -127 66.5 -193.5t165.5 -66.5q97 0 165 66t68 201v375zM260 895h81l104 -156h-33z" />
    <glyph glyph-name="Uacute" unicode="&#xda;" horiz-adv-x="698" 
d="M582 682h53v-372q0 -84 -24.5 -148t-66.5 -100t-91 -53.5t-104 -17.5q-122 0 -203.5 80t-81.5 227v384h53v-382q0 -127 66.5 -193.5t165.5 -66.5q97 0 165 66t68 201v375zM521 895l-152 -156h-33l104 156h81z" />
    <glyph glyph-name="Ucircumflex" unicode="&#xdb;" horiz-adv-x="698" 
d="M582 682h53v-372q0 -84 -24.5 -148t-66.5 -100t-91 -53.5t-104 -17.5q-122 0 -203.5 80t-81.5 227v384h53v-382q0 -127 66.5 -193.5t165.5 -66.5q97 0 165 66t68 201v375zM381 894l106 -164h-38l-99 109l-100 -109h-38l108 164h61z" />
    <glyph glyph-name="Udieresis" unicode="&#xdc;" horiz-adv-x="698" 
d="M582 682h53v-372q0 -84 -24.5 -148t-66.5 -100t-91 -53.5t-104 -17.5q-122 0 -203.5 80t-81.5 227v384h53v-382q0 -127 66.5 -193.5t165.5 -66.5q97 0 165 66t68 201v375zM438 854q18 0 31 -13t13 -31t-13 -31t-31 -13t-31 13t-13 31t13 31t31 13zM261 854q18 0 31 -13
t13 -31t-13 -31t-31 -13t-31 13t-13 31t13 31t31 13z" />
    <glyph glyph-name="Yacute" unicode="&#xdd;" horiz-adv-x="583" 
d="M583 682l-265 -316v-366h-53v366l-265 316h64l228 -270l227 270h64zM463 895l-152 -156h-33l104 156h81z" />
    <glyph glyph-name="Thorn" unicode="&#xde;" horiz-adv-x="510" 
d="M78 682h53v-159h135q113 0 168 -50t55 -130q0 -35 -11 -66t-36 -58t-71.5 -43t-109.5 -16h-130v-160h-53v682zM131 479v-275h127q90 0 132 38t42 100q0 60 -41.5 98.5t-126.5 38.5h-133z" />
    <glyph glyph-name="germandbls" unicode="&#xdf;" horiz-adv-x="500" 
d="M62 0v487q0 97 48.5 150.5t136.5 53.5q79 0 130.5 -46.5t51.5 -118.5q0 -41 -22 -85t-68 -62q120 -47 120 -181q0 -91 -50.5 -149t-128.5 -58q-29 0 -62 9v50q34 -12 60 -12q59 0 94.5 43.5t35.5 115.5q0 71 -35.5 112.5t-99.5 46.5v45q49 -4 77 33.5t28 88.5
q0 59 -35.5 93.5t-95.5 34.5q-76 0 -106.5 -46t-30.5 -127v-478h-48z" />
    <glyph glyph-name="agrave" unicode="&#xe0;" horiz-adv-x="427" 
d="M421 78v-40l-8 -6q-54 -41 -83 -41q-16 0 -22.5 11t-9.5 45q-72 -56 -141 -56q-51 0 -86 33.5t-35 80.5q0 55 39.5 92.5t95.5 53t127 18.5v57q0 92 -100 92q-35 0 -65.5 -13t-71.5 -44v49q78 48 145 48q33 0 62 -9t53.5 -36.5t24.5 -71.5v-280q0 -23 11 -23q13 0 64 40z
M298 89v140q-89 4 -151.5 -31t-62.5 -93q0 -32 25.5 -53t63.5 -21q60 0 125 58zM124 677h81l104 -156h-33z" />
    <glyph glyph-name="aacute" unicode="&#xe1;" horiz-adv-x="427" 
d="M421 78v-40l-8 -6q-54 -41 -83 -41q-16 0 -22.5 11t-9.5 45q-72 -56 -141 -56q-51 0 -86 33.5t-35 80.5q0 55 39.5 92.5t95.5 53t127 18.5v57q0 92 -100 92q-35 0 -65.5 -13t-71.5 -44v49q78 48 145 48q33 0 62 -9t53.5 -36.5t24.5 -71.5v-280q0 -23 11 -23q13 0 64 40z
M298 89v140q-89 4 -151.5 -31t-62.5 -93q0 -32 25.5 -53t63.5 -21q60 0 125 58zM385 677l-152 -156h-33l104 156h81z" />
    <glyph glyph-name="acircumflex" unicode="&#xe2;" horiz-adv-x="427" 
d="M421 78v-40l-8 -6q-54 -41 -83 -41q-16 0 -22.5 11t-9.5 45q-72 -56 -141 -56q-51 0 -86 33.5t-35 80.5q0 55 39.5 92.5t95.5 53t127 18.5v57q0 92 -100 92q-35 0 -65.5 -13t-71.5 -44v49q78 48 145 48q33 0 62 -9t53.5 -36.5t24.5 -71.5v-280q0 -23 11 -23q13 0 64 40z
M298 89v140q-89 4 -151.5 -31t-62.5 -93q0 -32 25.5 -53t63.5 -21q60 0 125 58zM245 676l106 -164h-38l-99 109l-100 -109h-38l108 164h61z" />
    <glyph glyph-name="atilde" unicode="&#xe3;" horiz-adv-x="427" 
d="M421 78v-40l-8 -6q-54 -41 -83 -41q-16 0 -22.5 11t-9.5 45q-72 -56 -141 -56q-51 0 -86 33.5t-35 80.5q0 55 39.5 92.5t95.5 53t127 18.5v57q0 92 -100 92q-35 0 -65.5 -13t-71.5 -44v49q78 48 145 48q33 0 62 -9t53.5 -36.5t24.5 -71.5v-280q0 -23 11 -23q13 0 64 40z
M298 89v140q-89 4 -151.5 -31t-62.5 -93q0 -32 25.5 -53t63.5 -21q60 0 125 58zM82 548h-32q0 40 20.5 67.5t61.5 27.5q32 0 88 -24q60 -25 82 -25q20 0 30.5 11.5t14.5 37.5h30q3 -42 -23 -70q-23 -26 -59 -26q-24 0 -89 25q-60 24 -82 24q-36 0 -42 -48z" />
    <glyph glyph-name="adieresis" unicode="&#xe4;" horiz-adv-x="427" 
d="M421 78v-40l-8 -6q-54 -41 -83 -41q-16 0 -22.5 11t-9.5 45q-72 -56 -141 -56q-51 0 -86 33.5t-35 80.5q0 55 39.5 92.5t95.5 53t127 18.5v57q0 92 -100 92q-35 0 -65.5 -13t-71.5 -44v49q78 48 145 48q33 0 62 -9t53.5 -36.5t24.5 -71.5v-280q0 -23 11 -23q13 0 64 40z
M298 89v140q-89 4 -151.5 -31t-62.5 -93q0 -32 25.5 -53t63.5 -21q60 0 125 58zM302 636q18 0 31 -13t13 -31t-13 -31t-31 -13t-31 13t-13 31t13 31t31 13zM125 636q18 0 31 -13t13 -31t-13 -31t-31 -13t-31 13t-13 31t13 31t31 13z" />
    <glyph glyph-name="aring" unicode="&#xe5;" horiz-adv-x="427" 
d="M421 78v-40l-8 -6q-54 -41 -83 -41q-16 0 -22.5 11t-9.5 45q-72 -56 -141 -56q-51 0 -86 33.5t-35 80.5q0 55 39.5 92.5t95.5 53t127 18.5v57q0 92 -100 92q-35 0 -65.5 -13t-71.5 -44v49q78 48 145 48q33 0 62 -9t53.5 -36.5t24.5 -71.5v-280q0 -23 11 -23q13 0 64 40z
M298 89v140q-89 4 -151.5 -31t-62.5 -93q0 -32 25.5 -53t63.5 -21q60 0 125 58zM214 652q-25 0 -42.5 -17t-17.5 -42t17.5 -42.5t42.5 -17.5t42 17.5t17 42.5t-17 42t-42 17zM214 679q36 0 61 -25t25 -61t-25 -61.5t-61 -25.5t-61.5 25.5t-25.5 61.5t25.5 61t61.5 25z" />
    <glyph glyph-name="ae" unicode="&#xe6;" horiz-adv-x="667" 
d="M630 243h-289v-59q0 -74 38 -110t91 -36q79 0 160 59v-55q-82 -51 -165 -51t-143 70q-97 -70 -169 -70q-52 0 -86 33t-34 83q0 29 12 52.5t32 40t55.5 32t70.5 26t90 24.5v33q0 99 -90 99q-70 0 -149 -56v50q73 50 156 50q44 0 72 -16t50 -53q29 38 57.5 53.5t67.5 15.5
q79 0 126 -60.5t47 -154.5zM341 282h236q-2 59 -37.5 94t-83.5 35q-49 0 -81.5 -36t-33.5 -93zM293 89v154q-103 -25 -158.5 -57.5t-55.5 -80.5q0 -32 24 -53t60 -21q53 0 130 58z" />
    <glyph glyph-name="ccedilla" unicode="&#xe7;" horiz-adv-x="417" 
d="M387 64v-50q-69 -23 -125 -23q-12 0 -18 2l-8 -28q62 -10 62 -63q0 -46 -42.5 -65.5t-99.5 -6.5l5 32q48 -4 73 3.5t25 33.5q0 38 -62 39l17 57q-79 14 -125.5 74t-46.5 149q0 106 61 173t157 67q50 0 119 -22v-53q-66 28 -117 28q-75 0 -122 -52t-47 -136q0 -85 47 -135
t126 -50q56 0 121 26z" />
    <glyph glyph-name="egrave" unicode="&#xe8;" horiz-adv-x="479" 
d="M445 241h-354q-10 -84 45 -143.5t134 -59.5q84 0 167 67v-54q-78 -60 -173 -60q-98 0 -161 67.5t-63 171.5q0 99 58.5 163.5t147.5 64.5q80 0 139.5 -56t59.5 -161zM97 280h291q-25 131 -142 131q-56 0 -96 -35t-53 -96zM150 677h81l104 -156h-33z" />
    <glyph glyph-name="eacute" unicode="&#xe9;" horiz-adv-x="479" 
d="M445 241h-354q-10 -84 45 -143.5t134 -59.5q84 0 167 67v-54q-78 -60 -173 -60q-98 0 -161 67.5t-63 171.5q0 99 58.5 163.5t147.5 64.5q80 0 139.5 -56t59.5 -161zM97 280h291q-25 131 -142 131q-56 0 -96 -35t-53 -96zM411 677l-152 -156h-33l104 156h81z" />
    <glyph glyph-name="ecircumflex" unicode="&#xea;" horiz-adv-x="479" 
d="M445 241h-354q-10 -84 45 -143.5t134 -59.5q84 0 167 67v-54q-78 -60 -173 -60q-98 0 -161 67.5t-63 171.5q0 99 58.5 163.5t147.5 64.5q80 0 139.5 -56t59.5 -161zM97 280h291q-25 131 -142 131q-56 0 -96 -35t-53 -96zM271 676l106 -164h-38l-99 109l-100 -109h-38
l108 164h61z" />
    <glyph glyph-name="edieresis" unicode="&#xeb;" horiz-adv-x="479" 
d="M445 241h-354q-10 -84 45 -143.5t134 -59.5q84 0 167 67v-54q-78 -60 -173 -60q-98 0 -161 67.5t-63 171.5q0 99 58.5 163.5t147.5 64.5q80 0 139.5 -56t59.5 -161zM97 280h291q-25 131 -142 131q-56 0 -96 -35t-53 -96zM328 636q18 0 31 -13t13 -31t-13 -31t-31 -13
t-31 13t-13 31t13 31t31 13zM151 636q18 0 31 -13t13 -31t-13 -31t-31 -13t-31 13t-13 31t13 31t31 13z" />
    <glyph glyph-name="igrave" unicode="&#xec;" horiz-adv-x="188" 
d="M118 449v-449h-48v449h48zM-36 677h81l104 -156h-33z" />
    <glyph glyph-name="iacute" unicode="&#xed;" horiz-adv-x="188" 
d="M118 449v-449h-48v449h48zM266 677l-152 -156h-33l104 156h81z" />
    <glyph glyph-name="icircumflex" unicode="&#xee;" horiz-adv-x="188" 
d="M118 449v-449h-48v449h48zM126 676l106 -164h-38l-99 109l-100 -109h-38l108 164h61z" />
    <glyph glyph-name="idieresis" unicode="&#xef;" horiz-adv-x="188" 
d="M118 449v-449h-48v449h48zM183 636q18 0 31 -13t13 -31t-13 -31t-31 -13t-31 13t-13 31t13 31t31 13zM6 636q18 0 31 -13t13 -31t-13 -31t-31 -13t-31 13t-13 31t13 31t31 13z" />
    <glyph glyph-name="eth" unicode="&#xf0;" horiz-adv-x="559" 
d="M473 227q0 85 -53.5 138t-139.5 53q-83 0 -139.5 -57t-56.5 -140q0 -82 56 -136t142 -54q87 0 139 54t52 142zM483 649l-116 -53q157 -132 157 -346q0 -118 -67.5 -188.5t-180.5 -70.5q-101 0 -169.5 66t-68.5 164q0 101 69.5 169t173.5 68q57 0 99 -19t80 -63l2 2
q-36 115 -141 197l-143 -67l-15 33l125 58q-37 26 -90 47l19 36q65 -24 118 -61l133 61z" />
    <glyph glyph-name="ntilde" unicode="&#xf1;" horiz-adv-x="490" 
d="M110 449v-78h2q31 47 65 67t83 20q75 0 121 -48t46 -136v-274h-48v256q0 76 -31.5 115.5t-90.5 39.5q-48 0 -82 -23t-65 -73v-315h-48v449h48zM114 548h-32q0 40 20.5 67.5t61.5 27.5q32 0 88 -24q60 -25 82 -25q20 0 30.5 11.5t14.5 37.5h30q3 -42 -23 -70
q-23 -26 -59 -26q-24 0 -89 25q-60 24 -82 24q-36 0 -42 -48z" />
    <glyph glyph-name="ograve" unicode="&#xf2;" horiz-adv-x="542" 
d="M499 224q0 -100 -65 -166.5t-163 -66.5t-163.5 66.5t-65.5 166.5t65.5 167t163.5 67t163 -66.5t65 -167.5zM448 224q0 80 -50.5 133.5t-126.5 53.5q-77 0 -127.5 -53t-50.5 -134q0 -80 50.5 -133t127.5 -53q76 0 126.5 53t50.5 133zM182 677h81l104 -156h-33z" />
    <glyph glyph-name="oacute" unicode="&#xf3;" horiz-adv-x="542" 
d="M499 224q0 -100 -65 -166.5t-163 -66.5t-163.5 66.5t-65.5 166.5t65.5 167t163.5 67t163 -66.5t65 -167.5zM448 224q0 80 -50.5 133.5t-126.5 53.5q-77 0 -127.5 -53t-50.5 -134q0 -80 50.5 -133t127.5 -53q76 0 126.5 53t50.5 133zM443 677l-152 -156h-33l104 156h81z
" />
    <glyph glyph-name="ocircumflex" unicode="&#xf4;" horiz-adv-x="542" 
d="M499 224q0 -100 -65 -166.5t-163 -66.5t-163.5 66.5t-65.5 166.5t65.5 167t163.5 67t163 -66.5t65 -167.5zM448 224q0 80 -50.5 133.5t-126.5 53.5q-77 0 -127.5 -53t-50.5 -134q0 -80 50.5 -133t127.5 -53q76 0 126.5 53t50.5 133zM303 676l106 -164h-38l-99 109
l-100 -109h-38l108 164h61z" />
    <glyph glyph-name="otilde" unicode="&#xf5;" horiz-adv-x="542" 
d="M499 224q0 -100 -65 -166.5t-163 -66.5t-163.5 66.5t-65.5 166.5t65.5 167t163.5 67t163 -66.5t65 -167.5zM448 224q0 80 -50.5 133.5t-126.5 53.5q-77 0 -127.5 -53t-50.5 -134q0 -80 50.5 -133t127.5 -53q76 0 126.5 53t50.5 133zM140 548h-32q0 40 20.5 67.5
t61.5 27.5q32 0 88 -24q60 -25 82 -25q20 0 30.5 11.5t14.5 37.5h30q3 -42 -23 -70q-23 -26 -59 -26q-24 0 -89 25q-60 24 -82 24q-36 0 -42 -48z" />
    <glyph glyph-name="odieresis" unicode="&#xf6;" horiz-adv-x="542" 
d="M499 224q0 -100 -65 -166.5t-163 -66.5t-163.5 66.5t-65.5 166.5t65.5 167t163.5 67t163 -66.5t65 -167.5zM448 224q0 80 -50.5 133.5t-126.5 53.5q-77 0 -127.5 -53t-50.5 -134q0 -80 50.5 -133t127.5 -53q76 0 126.5 53t50.5 133zM360 636q18 0 31 -13t13 -31t-13 -31
t-31 -13t-31 13t-13 31t13 31t31 13zM183 636q18 0 31 -13t13 -31t-13 -31t-31 -13t-31 13t-13 31t13 31t31 13z" />
    <glyph glyph-name="divide" unicode="&#xf7;" horiz-adv-x="660" 
d="M68 373h524v-44h-524v44zM330 478q-16 0 -27.5 11t-11.5 28t11.5 28t27.5 11t27.5 -11t11.5 -28t-11.5 -28t-27.5 -11zM330 146q-16 0 -27.5 11t-11.5 28t11.5 28t27.5 11t27.5 -11t11.5 -28t-11.5 -28t-27.5 -11z" />
    <glyph glyph-name="oslash" unicode="&#xf8;" horiz-adv-x="542" 
d="M133 103l242 274q-44 34 -104 34q-77 0 -127.5 -53t-50.5 -134q0 -68 40 -121zM132 36l-57 -66l-33 30l58 66q-58 63 -58 158q0 100 65.5 167t163.5 67q79 0 137 -44l53 60l31 -25l-54 -62q61 -69 61 -163q0 -100 -65 -166.5t-163 -66.5q-78 0 -139 45zM404 348
l-239 -275q27 -18 49 -26.5t57 -8.5q76 0 126.5 53t50.5 133q0 78 -44 124z" />
    <glyph glyph-name="ugrave" unicode="&#xf9;" horiz-adv-x="490" 
d="M379 0v74h-2q-32 -45 -64.5 -64t-83.5 -19q-67 0 -117 44t-50 136v278h48v-277q0 -65 35 -99.5t88 -34.5q50 0 82 23t64 73v315h48v-449h-48zM156 677h81l104 -156h-33z" />
    <glyph glyph-name="uacute" unicode="&#xfa;" horiz-adv-x="490" 
d="M379 0v74h-2q-32 -45 -64.5 -64t-83.5 -19q-67 0 -117 44t-50 136v278h48v-277q0 -65 35 -99.5t88 -34.5q50 0 82 23t64 73v315h48v-449h-48zM417 677l-152 -156h-33l104 156h81z" />
    <glyph glyph-name="ucircumflex" unicode="&#xfb;" horiz-adv-x="490" 
d="M379 0v74h-2q-32 -45 -64.5 -64t-83.5 -19q-67 0 -117 44t-50 136v278h48v-277q0 -65 35 -99.5t88 -34.5q50 0 82 23t64 73v315h48v-449h-48zM277 676l106 -164h-38l-99 109l-100 -109h-38l108 164h61z" />
    <glyph glyph-name="udieresis" unicode="&#xfc;" horiz-adv-x="490" 
d="M379 0v74h-2q-32 -45 -64.5 -64t-83.5 -19q-67 0 -117 44t-50 136v278h48v-277q0 -65 35 -99.5t88 -34.5q50 0 82 23t64 73v315h48v-449h-48zM334 636q18 0 31 -13t13 -31t-13 -31t-31 -13t-31 13t-13 31t13 31t31 13zM157 636q18 0 31 -13t13 -31t-13 -31t-31 -13
t-31 13t-13 31t13 31t31 13z" />
    <glyph glyph-name="yacute" unicode="&#xfd;" horiz-adv-x="417" 
d="M423 449l-336 -679h-49l157 317l-189 362h50l163 -314l155 314h49zM380 677l-152 -156h-33l104 156h81z" />
    <glyph glyph-name="thorn" unicode="&#xfe;" horiz-adv-x="510" 
d="M111 682v-258q69 34 135 34q96 0 159 -66t63 -166q0 -99 -65 -167t-159 -68q-64 0 -133 34v-255h-48v912h48zM111 378v-306q63 -34 124 -34q81 0 130.5 50.5t49.5 133.5q0 82 -52.5 135.5t-133.5 53.5q-56 0 -118 -33z" />
    <glyph glyph-name="ydieresis" unicode="&#xff;" horiz-adv-x="417" 
d="M423 449l-336 -679h-49l157 317l-189 362h50l163 -314l155 314h49zM297 636q18 0 31 -13t13 -31t-13 -31t-31 -13t-31 13t-13 31t13 31t31 13zM120 636q18 0 31 -13t13 -31t-13 -31t-31 -13t-31 13t-13 31t13 31t31 13z" />
    <glyph glyph-name="dotlessi" unicode="&#x131;" horiz-adv-x="188" 
d="M118 449v-449h-48v449h48z" />
    <glyph glyph-name="Lslash" unicode="&#x141;" horiz-adv-x="469" 
d="M132 682v-331l167 137v-50l-167 -137v-257h337v-44h-390v262l-121 -100v50l121 100v370h53z" />
    <glyph glyph-name="lslash" unicode="&#x142;" horiz-adv-x="188" 
d="M118 682v-307l100 86v-50l-100 -84v-327h-48v291l-98 -85v50l98 83v343h48z" />
    <glyph glyph-name="OE" unicode="&#x152;" horiz-adv-x="896" 
d="M851 682v-44h-322v-274h315v-44h-315v-276h329v-44h-450q-92 0 -165 31t-115.5 81t-64.5 108.5t-22 119.5q0 64 23 124t66.5 109t115 79t160.5 30h445zM476 638h-59q-66 0 -120.5 -18t-91 -48t-61 -69t-35.5 -80t-11 -83q0 -55 19.5 -106.5t57.5 -94.5t101 -69t143 -26
h57v594z" />
    <glyph glyph-name="oe" unicode="&#x153;" horiz-adv-x="833" 
d="M793 242h-312q-4 -103 35 -153.5t107 -50.5q84 0 160 67v-55q-74 -59 -166 -59q-115 0 -163 105q-42 -55 -88 -80t-104 -25q-95 0 -158 63t-63 170q0 103 63 168.5t163 65.5q115 0 187 -95q22 44 65 69.5t89 25.5q81 0 135 -60t50 -156zM483 280h254q-4 62 -39.5 96.5
t-88.5 34.5q-51 0 -88 -36t-38 -95zM430 233q0 83 -43 130.5t-119 47.5q-79 0 -127.5 -51t-48.5 -134q0 -82 49 -135t124 -53t120 54t45 141z" />
    <glyph glyph-name="Scaron" unicode="&#x160;" horiz-adv-x="469" 
d="M400 648v-58q-52 30 -85 41t-68 11q-61 0 -102.5 -37t-41.5 -93q0 -42 24 -71t60 -43l78.5 -31.5t78.5 -36t60 -57.5t24 -95q0 -79 -57.5 -133t-140.5 -54q-85 0 -175 60v62q57 -41 94.5 -57t77.5 -16q61 0 102.5 39t41.5 97q0 45 -24 76.5t-60 46.5l-78.5 32.5t-78.5 35
t-60 54t-24 89.5q0 76 57.5 128.5t138.5 52.5q79 0 158 -43zM266 730h-61l-108 164h38l100 -109l99 109h38z" />
    <glyph glyph-name="scaron" unicode="&#x161;" horiz-adv-x="354" 
d="M309 420v-52q-70 46 -123 46q-41 0 -68.5 -22t-27.5 -54q0 -29 24 -49t58 -32t68.5 -26.5t58.5 -43.5t24 -72q0 -53 -42.5 -88.5t-104.5 -35.5q-68 0 -135 41v47q81 -41 141 -41q41 0 68 22t27 56q0 29 -24 49.5t-58.5 33t-68.5 27t-58 42t-24 67.5q0 52 42 87.5
t103 35.5q54 0 120 -38zM209 512h-61l-108 164h38l100 -109l99 109h38z" />
    <glyph glyph-name="Ydieresis" unicode="&#x178;" horiz-adv-x="583" 
d="M583 682l-265 -316v-366h-53v366l-265 316h64l228 -270l227 270h64zM380 854q18 0 31 -13t13 -31t-13 -31t-31 -13t-31 13t-13 31t13 31t31 13zM203 854q18 0 31 -13t13 -31t-13 -31t-31 -13t-31 13t-13 31t13 31t31 13z" />
    <glyph glyph-name="Zcaron" unicode="&#x17d;" horiz-adv-x="635" 
d="M602 682l5 -19l-511 -619h515v-44h-597l-5 15l511 623h-488v44h570zM349 730h-61l-108 164h38l100 -109l99 109h38z" />
    <glyph glyph-name="zcaron" unicode="&#x17e;" horiz-adv-x="396" 
d="M381 449l4 -15l-295 -390h295v-44h-370l-5 15l297 390h-278v44h352zM230 512h-61l-108 164h38l100 -109l99 109h38z" />
    <glyph glyph-name="florin" unicode="&#x192;" horiz-adv-x="556" 
d="M359 521h109l-11 -47h-107l-121 -557q-15 -70 -45.5 -98.5t-89.5 -28.5q-38 0 -87 15l11 49q44 -11 71 -11q34 0 52 16t27 57l120 558h-82l9 47h82l24 104q25 105 129 105q30 0 89 -16l-10 -48q-40 10 -75 10q-36 0 -52 -19t-27 -68z" />
    <glyph glyph-name="circumflex" unicode="&#x2c6;" 
d="M198 676l106 -164h-38l-99 109l-100 -109h-38l108 164h61z" />
    <glyph glyph-name="caron" unicode="&#x2c7;" 
d="M198 512h-61l-108 164h38l100 -109l99 109h38z" />
    <glyph glyph-name="uni02C9" unicode="&#x2c9;" 
d="M300 623v-51h-267v51h267z" />
    <glyph glyph-name="breve" unicode="&#x2d8;" 
d="M264 647h39q-43 -114 -135 -114q-48 0 -85 34q-29 25 -53 80h41q32 -67 96 -67q61 0 97 67z" />
    <glyph glyph-name="dotaccent" unicode="&#x2d9;" 
d="M166 636q18 0 31 -13t13 -31t-13 -31t-31 -13t-31 13t-13 31t13 31t31 13z" />
    <glyph glyph-name="ring" unicode="&#x2da;" 
d="M167 652q-25 0 -42.5 -17t-17.5 -42t17.5 -42.5t42.5 -17.5t42 17.5t17 42.5t-17 42t-42 17zM167 679q36 0 61 -25t25 -61t-25 -61.5t-61 -25.5t-61.5 25.5t-25.5 61.5t25.5 61t61.5 25z" />
    <glyph glyph-name="ogonek" unicode="&#x2db;" 
d="M232 -127v-38q-60 -15 -97.5 9.5t-37.5 67.5q0 30 15.5 53t29.5 31.5t28 13.5h32l-6 -6q-19 -19 -27 -28t-14 -21.5t-6 -26.5q0 -29 21.5 -44t61.5 -11z" />
    <glyph glyph-name="tilde" unicode="&#x2dc;" 
d="M35 548h-32q0 40 20.5 67.5t61.5 27.5q32 0 88 -24q60 -25 82 -25q20 0 30.5 11.5t14.5 37.5h30q3 -42 -23 -70q-23 -26 -59 -26q-24 0 -89 25q-60 24 -82 24q-36 0 -42 -48z" />
    <glyph glyph-name="hungarumlaut" unicode="&#x2dd;" 
d="M385 677l-152 -156h-33l104 156h81zM252 677l-152 -156h-33l104 156h81z" />
    <glyph glyph-name="uni03A9" unicode="&#x3a9;" horiz-adv-x="652" 
d="M190 41v3q-56 53 -92 134.5t-36 180.5q0 147 76.5 236.5t190.5 89.5q115 0 188 -92.5t73 -230.5q0 -103 -37.5 -186.5t-91.5 -131.5v-3h141v-41h-207v31q62 45 104.5 131t42.5 192q-1 68 -23.5 132t-72.5 110.5t-118 46.5q-98 0 -158 -83t-60 -207q0 -101 43.5 -190.5
t102.5 -131.5v-31h-207v41h141z" />
    <glyph glyph-name="uni03BC" unicode="&#x3bc;" horiz-adv-x="556" 
d="M101 449h48v-233q0 -181 132 -181t132 167v247h48v-449h-48v50q-53 -59 -133 -59q-42 0 -71.5 13.5t-59.5 45.5v-227h-48v626z" />
    <glyph glyph-name="pi" unicode="&#x3c0;" horiz-adv-x="504" 
d="M478 457h-77v-318q0 -93 14 -139h-46q-15 24 -15 133v324h-180q-5 -112 -25 -253.5t-45 -203.5h-47q26 72 45.5 208t23.5 249q-74 0 -105 -12l-9 32q37 23 121 23h350z" />
    <glyph glyph-name="endash" unicode="&#x2013;" horiz-adv-x="500" 
d="M-6 266h512v-32h-512v32z" />
    <glyph glyph-name="emdash" unicode="&#x2014;" horiz-adv-x="1000" 
d="M-6 266h1012v-32h-1012v32z" />
    <glyph glyph-name="quoteleft" unicode="&#x2018;" horiz-adv-x="177" 
d="M56 470v76q0 40 16.5 77.5t48.5 60.5v-35q-21 -31 -21 -82h21v-97h-65z" />
    <glyph glyph-name="quoteright" unicode="&#x2019;" horiz-adv-x="177" 
d="M121 684v-76q0 -40 -16.5 -77.5t-48.5 -60.5v35q21 31 21 82h-21v97h65z" />
    <glyph glyph-name="quotesinglbase" unicode="&#x201a;" horiz-adv-x="177" 
d="M121 97v-76q0 -40 -16.5 -77.5t-48.5 -60.5v35q21 31 21 82h-21v97h65z" />
    <glyph glyph-name="quotedblleft" unicode="&#x201c;" horiz-adv-x="396" 
d="M275 470v76q0 40 16.5 77.5t48.5 60.5v-35q-21 -31 -21 -82h21v-97h-65zM56 470v76q0 40 16.5 77.5t48.5 60.5v-35q-21 -31 -21 -82h21v-97h-65z" />
    <glyph glyph-name="quotedblright" unicode="&#x201d;" horiz-adv-x="396" 
d="M340 684v-76q0 -40 -16.5 -77.5t-48.5 -60.5v35q21 31 21 82h-21v97h65zM121 684v-76q0 -40 -16.5 -77.5t-48.5 -60.5v35q21 31 21 82h-21v97h65z" />
    <glyph glyph-name="quotedblbase" unicode="&#x201e;" horiz-adv-x="396" 
d="M338 97v-76q0 -40 -16.5 -77.5t-48.5 -60.5v35q21 32 21 82h-21v97h65zM123 97v-76q0 -40 -16.5 -77.5t-48.5 -60.5v35q21 31 21 82h-21v97h65z" />
    <glyph glyph-name="dagger" unicode="&#x2020;" horiz-adv-x="490" 
d="M277 691l-18 -283l205 13v-55l-205 13l18 -609h-65l19 609l-206 -13v55l206 -13l-19 283h65z" />
    <glyph glyph-name="daggerdbl" unicode="&#x2021;" horiz-adv-x="479" 
d="M213 231l14 180l-201 -14v55l201 -14l-19 253h63l-18 -253l200 14v-55l-200 14l13 -180l-13 -181l200 14v-55l-200 14l18 -253h-63l19 253l-201 -14v55l201 -14z" />
    <glyph glyph-name="bullet" unicode="&#x2022;" horiz-adv-x="500" 
d="M250 463q50 0 86 -36t36 -86t-36 -86t-86 -36t-86 36t-36 86t36 86t86 36z" />
    <glyph glyph-name="ellipsis" unicode="&#x2026;" horiz-adv-x="1000" 
d="M865 97v-97h-65v97h65zM532 97v-97h-65v97h65zM199 97v-97h-65v97h65z" />
    <glyph glyph-name="perthousand" unicode="&#x2030;" horiz-adv-x="1052" 
d="M1036 149q0 -67 -47.5 -114t-113.5 -47q-67 0 -114 47t-47 114t47 114t114 47q66 0 113.5 -47t47.5 -114zM993 149q0 49 -34.5 83.5t-83.5 34.5t-83.5 -35t-34.5 -83q0 -49 34.5 -83.5t83.5 -34.5t83.5 34.5t34.5 83.5zM665 149q0 -67 -47.5 -114t-113.5 -47
q-67 0 -114 47t-47 114t47 114t114 47q66 0 113.5 -47t47.5 -114zM622 149q0 49 -34.5 83.5t-83.5 34.5t-83.5 -35t-34.5 -83q0 -49 34.5 -83.5t83.5 -34.5t83.5 34.5t34.5 83.5zM338 530q0 -67 -47.5 -114t-113.5 -47q-67 0 -114 47t-47 114t47 114t114 47q66 0 113.5 -47
t47.5 -114zM295 530q0 49 -34.5 83.5t-83.5 34.5t-83.5 -35t-34.5 -83q0 -49 34.5 -83.5t83.5 -34.5t83.5 34.5t34.5 83.5zM631 688l-549 -699h-50l550 699h49z" />
    <glyph glyph-name="guilsinglleft" unicode="&#x2039;" horiz-adv-x="281" 
d="M77 231l188 -224h-60l-189 224l189 224h60z" />
    <glyph glyph-name="guilsinglright" unicode="&#x203a;" horiz-adv-x="281" 
d="M204 231l-188 224h60l189 -224l-189 -224h-60z" />
    <glyph glyph-name="fraction" unicode="&#x2044;" horiz-adv-x="135" 
d="M350 691l-526 -718h-39l526 718h39z" />
    <glyph glyph-name="Euro" unicode="&#x20ac;" horiz-adv-x="559" 
d="M462 260h-315q11 -64 30 -103q24 -52 71.5 -83.5t102.5 -31.5q43 0 82.5 15t95.5 52v-55q-93 -63 -177 -63q-104 0 -174 72t-88 197h-74l9 48h61q-1 10 -1 36q0 20 1 28h-70l9 48h65q18 125 89.5 198t176.5 73q82 0 179 -50l-10 -51q-94 51 -169 51q-80 0 -136.5 -59.5
t-72.5 -161.5h344l-9 -48h-340q-1 -9 -1 -28q0 -23 1 -36h329z" />
    <glyph glyph-name="afii61289" unicode="&#x2113;" horiz-adv-x="430" 
d="M380 127l27 -20q-58 -111 -161 -111q-73 0 -108 53t-36 137v14l-54 -47l-18 30q66 61 72 67v272q0 121 37.5 172.5t91.5 51.5q51 0 78.5 -40.5t27.5 -106.5q0 -164 -190 -361v-30q0 -89 30.5 -131t76.5 -42q41 0 73.5 27.5t52.5 64.5zM147 529v-238q73 83 113.5 156.5
t40.5 148.5q0 111 -72 111q-32 0 -57 -43.5t-25 -134.5z" />
    <glyph glyph-name="trademark" unicode="&#x2122;" horiz-adv-x="940" 
d="M100 714h310v-41h-129v-356h-51v356h-130v41zM456 714h75l99 -317h2l103 317h76v-397h-45v356h-2l-117 -356h-34l-110 356h-2v-356h-45v397z" />
    <glyph glyph-name="Omega" unicode="&#x2126;" horiz-adv-x="652" 
d="M190 41v3q-56 53 -92 134.5t-36 180.5q0 147 76.5 236.5t190.5 89.5q115 0 188 -92.5t73 -230.5q0 -103 -37.5 -186.5t-91.5 -131.5v-3h141v-41h-207v31q62 45 104.5 131t42.5 192q-1 68 -23.5 132t-72.5 110.5t-118 46.5q-98 0 -158 -83t-60 -207q0 -101 43.5 -190.5
t102.5 -131.5v-31h-207v41h141z" />
    <glyph glyph-name="estimated" unicode="&#x212e;" horiz-adv-x="844" 
d="M810 331h-629q-5 0 -5 -4v-190q0 -12 8 -22q101 -104 238 -104q148 0 251 116h55q-53 -62 -134 -98.5t-173 -36.5q-161 0 -274.5 102t-113.5 247t113.5 247t274.5 102t275 -102t114 -247v-10zM667 356v192q0 13 -9 22q-102 100 -236 100q-136 0 -237 -103q-9 -9 -9 -24
v-187q0 -6 5 -6h482q4 0 4 6z" />
    <glyph glyph-name="partialdiff" unicode="&#x2202;" horiz-adv-x="485" 
d="M92 670l-20 36q63 51 144 51q92 0 156.5 -92t64.5 -270q0 -179 -59 -289.5t-169 -110.5q-81 0 -124.5 63t-43.5 156q0 109 57.5 177t135.5 68q57 0 98 -30.5t57 -63.5h1q1 13 1 45q0 137 -52.5 221.5t-125.5 84.5q-69 0 -121 -46zM212 36h1q68 0 114 77.5t56 193.5
q-14 42 -53 77t-91 35q-61 0 -105.5 -59.5t-44.5 -142.5q0 -81 33.5 -131t89.5 -50z" />
    <glyph glyph-name="Delta" unicode="&#x2206;" horiz-adv-x="581" 
d="M31 0v38l234 656h53l233 -656v-38h-520zM78 40h421l-145 410q-7 21 -31.5 87t-31.5 92h-4q-5 -23 -28.5 -87.5t-27.5 -77.5z" />
    <glyph glyph-name="product" unicode="&#x220f;" horiz-adv-x="623" 
d="M598 630h-101v-723h-47v723h-278v-723h-47v723h-100v44h573v-44z" />
    <glyph glyph-name="summation" unicode="&#x2211;" horiz-adv-x="500" 
d="M478 -93h-457v34l255 348l-243 351v34h430v-42h-362v-4l231 -333l-248 -338v-3h394v-47z" />
    <glyph glyph-name="minus" unicode="&#x2212;" horiz-adv-x="660" 
d="M68 373h524v-44h-524v44z" />
    <glyph glyph-name="uni2215" unicode="&#x2215;" horiz-adv-x="135" 
d="M350 691l-526 -718h-39l526 718h39z" />
    <glyph glyph-name="uni2219" unicode="&#x2219;" horiz-adv-x="281" 
d="M141 400q23 0 38.5 -16t15.5 -38t-15.5 -38t-38.5 -16t-38.5 16t-15.5 38t15.5 38t38.5 16z" />
    <glyph glyph-name="radical" unicode="&#x221a;" horiz-adv-x="515" 
d="M509 799l-200 -948h-46l-152 460l-68 -25l-11 33l111 42l126 -377q14 -63 15 -67l1 -1q2 16 11 64l175 819h38z" />
    <glyph glyph-name="infinity" unicode="&#x221e;" horiz-adv-x="716" 
d="M668 282v-1q0 -62 -41 -101.5t-97 -39.5q-42 0 -79 26t-92 85l-39 -41t-38 -33.5t-48.5 -28t-51.5 -8.5q-56 0 -95.5 40t-39.5 98q0 60 40 100.5t101 40.5q48 0 87.5 -29.5t86.5 -83.5l40.5 44t36 32t48.5 29t50 8q59 0 95 -38t36 -99zM188 174h1q18 0 34.5 5.5t35 20.5
l27 22t30 30t23.5 25q-54 63 -80 82q-38 27 -78 27q-44 0 -70 -32.5t-25 -76.5q0 -44 28 -73.5t74 -29.5zM533 386h-1q-22 0 -47 -13.5t-39 -26t-37.5 -37.5t-27.5 -29q40 -42 58.5 -59.5t44 -32t50.5 -14.5q44 0 70.5 31.5t26.5 72.5q0 51 -27.5 79.5t-70.5 28.5z" />
    <glyph glyph-name="integral" unicode="&#x222b;" horiz-adv-x="314" 
d="M300 806l-11 -34q-16 10 -34 10q-29 0 -46 -23q-34 -41 -34 -177q0 -74 6 -247.5t6 -248.5q0 -133 -43 -196q-28 -40 -79 -40q-31 0 -54 15l11 36q26 -11 41 -11q26 0 44 24q34 45 34 173q0 76 -6 251t-6 249q0 148 47 198q32 35 77 35q29 0 47 -14z" />
    <glyph glyph-name="approxequal" unicode="&#x2248;" horiz-adv-x="518" 
d="M450 402l23 -19q-43 -86 -115 -86q-6 0 -12 0.5t-12.5 2l-10.5 2.5t-11.5 4l-11 4.5t-12 6l-11.5 6l-14 7t-14 7.5q-55 32 -88 32q-51 0 -93 -71l-24 18q43 87 123 87q16 0 32.5 -5t26.5 -10t26 -14t20 -11t15 -8t15 -8t13 -6t15 -5.5t14.5 -3t16.5 -1.5q50 0 89 71z
M450 251l23 -19q-43 -85 -115 -85q-18 0 -37 6t-29.5 11.5l-42.5 22.5q-58 32 -88 32t-51 -18.5t-42 -52.5l-24 18q43 87 123 87q16 0 32.5 -4.5t26.5 -9.5t25.5 -14t20.5 -11q57 -33 90 -33q27 0 47 17t41 53z" />
    <glyph glyph-name="notequal" unicode="&#x2260;" horiz-adv-x="518" 
d="M362 473l-43 -94h150v-36h-165l-64 -138h229v-35h-244l-51 -110l-28 14l44 96h-142v35h158l63 138h-221v36h236l50 108z" />
    <glyph glyph-name="lessequal" unicode="&#x2264;" horiz-adv-x="518" 
d="M467 98l-414 211v36l414 211v-44l-373 -183v-2l373 -186v-43zM469 21h-421v37h421v-37z" />
    <glyph glyph-name="greaterequal" unicode="&#x2265;" horiz-adv-x="518" 
d="M54 556l413 -211v-36l-413 -211v43l372 184v2l-372 185v44zM469 21h-421v37h421v-37z" />
    <glyph glyph-name="lozenge" unicode="&#x25ca;" horiz-adv-x="516" 
d="M463 337l-186 -376h-40l-185 376l186 376h40zM417 336l-142 285q-7 15 -18 48h-1q-14 -38 -18 -48l-141 -283l143 -287q12 -26 16 -47h3q7 26 17 47z" />
    </font>
</defs>
</svg>
